The Romeo Section | 4-21 The Day After Tomorrow | Office Management.
 


 




Wir sind wenn hd-area.org mal ausfällt unter hd-area.biz erreichbar


Hier klickenfür Informationen zur Umgehung staatlicher Zensurmaßnahmen




Filmwünsche können bei uns im Forum abgegeben werden

Wir Speichern Nicht




 
 
 
Top Releases
Live.by.Night.2016.German.Du...
I.am.not.your.Negro.2016.Ger...
I.am.not.your.Negro.2016.Ger...
The.Devils.Candy.2015.German...
Erpressung.Wie.viel.ist.dein...
Hell.or.High.Water.2016.Germ...
Sicario.2015.German.DTS.DL.1...
Loving.2016.German.DTS.DL.10...
Der.grosse.Trip.Wild.2014.Ge...
Der.grosse.Trip.Wild.2014.Ge...

Cinedubs
King.Arthur.Legend.of.the.Sw...
King.Arthur.Legend.of.the.Sw...
Chips.German.DL.AC3.Dubbed.7...
Chips.German.DL.AC3.Dubbed.1...
Kong.Skull.Island.German.DL....
Kong.Skull.Island.German.DL....
Resident.Evil.The.Final.Chap...
Resident.Evil.The.Final.Chap...
Resident.Evil.The.Final.Chap...
Resident.Evil.Vendetta.Germa...

Neuerscheinungen 2016-17
VOICE.FROM.THE.STONE.2017.DU...
Dont.Hang.Up.2016.MULTi.COMP...
DER.SCHWARZE.NAZI.2016.GERMA...
Let.Her.Out.2016.DUAL.COMPLE...
Dont.Hang.Up.2016.German.DL....
Voice.from.the.Stone.Ruf.aus...
Let.Her.Out.2016.German.720p...
Dont.Hang.Up.2016.German.DL....
Dont.Hang.Up.2016.German.720...
Let.Her.Out.2016.German.DL.1...

XXX
Gokudouno.Bizuma.Dai.Zenpen....
Lustery.E51.Lucy.And.Hunter....
HardTied.17.06.21.Maddy.Orei...
JulesJordan.17.06.21.Holly.H...
MikaelaWitt.17.03.31.Fetish....
JamesDeen.17.06.23.Anna.Morn...
HussieAuditions.17.06.24.Aal...
LadyVoyeurs.17.05.31.Jade.Lo...
Heyzo.17.04.02.Shouko.Takash...
Intimacy.7.XXX.1080p.WEBRip....
MikaelaWitt.17.04.14.Boyfrie...
LethalHardcore.Girl.Scout.No...
GangbangCreampie.17.06.23.G1...
Heyzo.17.03.31.Ei.Kato.A.Pur...
Joymii.17.06.23.Lexi.Dona.Fu...
HotAndMean.17.06.21.Anna.De....
MikaelaWitt.17.04.21.Bath.Ti...
LittleCapriceDreams.17.06.20...
MikaelaWitt.17.04.05.Bitch.T...
FuckingMachines.17.06.21.Lyr...

3D
Kong.Skull.Island.3D.2017.CO...
Storm.Surfers.3D.2012.Bluray...
Die.irre.Heldentour.des.Bill...
Die.Bestimmung.Insurgent.3D....
Die.Bestimmung.Insurgent.3D....
The.Great.Wall.3D.2016.multi...
San.Andreas.3D.2015.German.D...
Mojin.The.Lost.Legend.3D.201...
The.LEGO.Batman.Movie.3D.201...
The.LEGO.Batman.Movie.2017.3...
The.LEGO.Batman.Movie.2017.3...
Kraftwerk.3D.12345678.2016.2...
Die.irre.Heldentour.des.Bill...
Die.irre.Heldentour.des.Bill...
L.A.Outlaws.Die.Gesetzlosen....

Old_Stuff
Jurassic.Park.1993.German.DT...
Vergessene.Welt.Jurassic.Par...
Lie.With.Me.Liebe.Mich.2005....
Zurueck.zu.Dir.2000.GERMAN.A...
P.O.E.-.Project.of.Evil.UNCU...
Fields.of.the.Dead.3D.2014.D...
Feuerwerk.am.helllichten.Tag...
Pitch.Perfect.2012.German.DT...
Das.A-Team.S05.German.DUBBED...
Das.A-Team.S05.German.DUBBED...
House.Rules.for.Bad.Girls.3D...
Return.To.Nuke.Em.High.Volum...
Dragons.of.Camelot.2014.DUAL...
Amy.Sie.oeffnet.das.Tor.zur....
13.Eerie.We.Prey.For.You.UNC...

Musik
The.Beatles.Sgt.Peppers.Lone...
The.Prometheus.Dolby.Atmos.E...
R.E.M.OUT.OF.TIME.25th.Anniv...
The.Rolling.Stones.GRRR.BR-A...
Mussorgsky.Bilder.einer.Auss...
Yes.-.The.Yes.Album.Bluray-A...
Carlos.Heredia.Gypsy.Flamenc...
SPES.2014.complete.Bluray.un...
Carlos.Santana.Collection.19...
Pink.Floyd.The.Endless.River...
The.Hyperion.Romantic.Piano....
Putumayo.113.CD.Flac.lossles...

Filme
MacGyver.S01.GERMAN.DUBBED.D...
The.Blacklist.S04.COMPLETE.G...
The.Blacklist.S04.COMPLETE.G...
MacGyver.S01.GERMAN.DUBBED.D...
Legends.of.Tomorrow.S02.GERM...
Legends.of.Tomorrow.S02.GERM...
Blindspot.S02.German.DUBBED....
Blindspot.S02.German.DUBBED....
Gotham.S03.GERMAN.DUBBED.DL....
Gotham.S03.GERMAN.DUBBED.DL....
Poldark.2015.S02.German.DL.D...
Fear.The.Walking.Dead.S03.Ge...
Fear.The.Walking.Dead.S03.Ge...
Violent.Shit.The.Movie.GERMA...
Violent.Shit.The.Movie.GERMA...
Antigang.2015.German.1080p.B...
Antigang.2015.German.720p.Bl...
Jessabelle.Die.Vorsehung.201...
Sanctuary.US.S04D01-3.iNTERN...
I.Saw.the.Devil.-.Rache.ist....
Blood.Diamond.2006.German.AC...
Joe.Dreck.2.Extended.2015.Ge...
Joe.Dreck.2.Extended.2015.Ge...
Die.Liebe.seines.Lebens.2013...

 
 
Giganten.1956.German.DL.1080p.BluRay.x264-DETAiLS
Jahr: 1956
Genre: Drama, Western
Sprache: Deutsch AC3 | Englisch DTS
Laufzeit: 3h 21mn
Bitrate: 10.1 Mbps
Format: MKV
Größe: 14.2 GiB
Release:

Beschreibung:

Der texanische Rancher Bick Benedict besucht eine Farm in Maryland, um ein preisgekröntes Rassepferd zu kaufen. Er trifft auf Leslie, die Tochter des Besitzers, und verliebt sich in sie. Sie heiraten und kehren zusammen auf Benedicts Ranch zurück, wo sich die Geschichte ihrer Familien und die Rivalität mit dem Cowboy Jett Rink durch einen überraschenden Ölfund mit tragischem Ausgang schicksalshaft fortsetzt.



General
Unique ID                                : 323172139075202039953217174506759285528 (0xF320B0A2C4E9DFC43D587A71014C6B18)
Complete name                            : d-giganten-1080p.mkv
Format                                   : Matroska
Format version                           : Version 2
File size                                : 14.2 GiB
Duration                                 : 3h 21mn
Overall bit rate                         : 10.1 Mbps
Movie name                               : Giganten (1956)
Encoded date                             : UTC 2013-09-28 15:59:50
Writing application                      : mkvmerge v6.3.0 ('You can't stop me!') built on Aug 31 2013 19:47:53
Writing library                          : libebml v1.3.0 + libmatroska v1.4.0

Video
ID                                       : 1
Format                                   : AVC
Format/Info                              : Advanced Video Codec
Format profile                           : [email protected]
Format settings, CABAC                   : Yes
Format settings, ReFrames                : 4 frames
Codec ID                                 : V_MPEG4/ISO/AVC
Duration                                 : 3h 21mn
Bit rate                                 : 8 410 Kbps
Width                                    : 1 792 pixels
Height                                   : 1 080 pixels
Display aspect ratio                     : 1.659
Frame rate mode                          : Constant
Frame rate                               : 23.976 fps
Color space                              : YUV
Chroma subsampling                       : 4:2:0
Bit depth                                : 8 bits
Scan type                                : Progressive
Bits/(Pixel*Frame)                       : 0.181
Stream size                              : 11.5 GiB (81%)
Title                                    : Giganten (1956)
Writing library                          : x264 core 138 r2358 9e941d1
Encoding settings                        : cabac=1 / ref=4 / deblock=1:0:0 / analyse=0x3:0x133 / me=umh / subme=7 / psy=1 / psy_rd=1.00:0.00 / mixed_ref=1 / me_range=16 / chroma_me=1 / trellis=1 / 8x8dct=1 / cqm=0 / deadzone=21,11 / fast_pskip=0 / chroma_qp_offset=-2 / threads=18 / lookahead_threads=3 / sliced_threads=0 / nr=0 / decimate=1 / interlaced=0 / bluray_compat=0 / constrained_intra=0 / bframes=3 / b_pyramid=2 / b_adapt=2 / b_bias=0 / direct=3 / weightb=1 / open_gop=0 / weightp=2 / keyint=250 / keyint_min=23 / scenecut=40 / intra_refresh=0 / rc_lookahead=50 / rc=2pass / mbtree=1 / bitrate=8410 / ratetol=1.0 / qcomp=0.60 / qpmin=0 / qpmax=69 / qpstep=4 / cplxblur=20.0 / qblur=0.5 / ip_ratio=1.40 / aq=1:1.00
Default                                  : Yes
Forced                                   : No

Audio #1
ID                                       : 2
Format                                   : AC-3
Format/Info                              : Audio Coding 3
Mode extension                           : CM (complete main)
Format settings, Endianness              : Big
Codec ID                                 : A_AC3
Duration                                 : 3h 21mn
Bit rate mode                            : Constant
Bit rate                                 : 192 Kbps
Channel(s)                               : 1 channel
Channel positions                        : Front: C
Sampling rate                            : 48.0 KHz
Bit depth                                : 16 bits
Compression mode                         : Lossy
Stream size                              : 276 MiB (2%)
Title                                    : AC3
Language                                 : German
Default                                  : Yes
Forced                                   : No

Audio #2
ID                                       : 3
Format                                   : DTS
Format/Info                              : Digital Theater Systems
Mode                                     : 16
Format settings, Endianness              : Big
Codec ID                                 : A_DTS
Duration                                 : 3h 21mn
Bit rate mode                            : Constant
Bit rate                                 : 1 509 Kbps
Channel(s)                               : 2 channels
Channel positions                        : Front: L R
Sampling rate                            : 48.0 KHz
Bit depth                                : 24 bits
Compression mode                         : Lossy
Stream size                              : 2.12 GiB (15%)
Title                                    : DTS
Language                                 : English
Default                                  : No
Forced                                   : No


Download:
Share Online | Uploaded Share Online | UploadedShare Online | UploadedShare Online | Uploaded
 

Kommentare