Elizabeth Rodriguez | TV - All | Lindsey Buckingham & Christine McVie
 


 




Wir sind wenn hd-area.org mal ausfällt unter hd-area.biz erreichbar


Hier klickenfür Informationen zur Umgehung staatlicher Zensurmaßnahmen




Filmwünsche können bei uns im Forum abgegeben werden

Wir Speichern Nicht




 
 
 
Top Releases
Erpressung.Wie.viel.ist.dein...
10.Days.in.a.Madhouse.2015.D...
The.Editor.2014.DUAL.COMPLET...
Hell.or.High.Water.2016.DUAL...
Hell.or.High.Water.2016.Germ...
Hell.or.High.Water.2016.Germ...
The.Editor.2014.German.720p....
The.Editor.2014.German.DL.10...
Personal.Shopper.German.DL.1...
Fences.2016.German.DL.1080p....

Cinedubs
Die.Schluempfe.Das.verlorene...
Die.Schluempfe.Das.verlorene...
Kong.Skull.Island.2017.Germa...
Kong.Skull.Island.2017.Germa...
Das.Belko.Experiment.2017.GE...
Das.Belko.Experiment.2017.GE...
Power.Rangers.2017.German.AC...
Power.Rangers.2017.German.AC...
Power.Rangers.2017.GERMAN.DL...
Power.Rangers.2017.GERMAN.DL...

Neuerscheinungen 2016-17
Moontrap.Angriffsziel.Erde.2...
Der.Eid.Ein.Island.Thriller....
Pet.2016.DUAL.COMPLETE.BLURA...
Rings.2017.MULTi.COMPLETE.BL...
Der.Eid.Ein.Island.Thriller....
Der.Eid.Ein.Island.Thriller....
Pet.Wenn.du.etwas.liebst.dan...
Pet.Wenn.du.etwas.liebst.dan...
Fences.German.2016.DL.BluRay...
Fences.German.2016.DL.BluRay...

XXX
JulesJordan.17.06.18.Karlee....
FAKings.17.05.22.Sasha.Gil.S...
FAKings.17.05.08.Iris.SPANIS...
EuroGirlsOnGirls.17.06.18.Pa...
Nubiles-Porn.17.06.18.Via.La...
MyNaughtyAlbum.17.06.18.Anny...
3WayPorn.17.06.06.Amy.Lee.Sa...
GirlsDoPorn.E423.22.Years.Ol...
1000Facials.17.06.19.Mya.Maz...
AllGirlMassage.17.06.19.Reen...
DayWithAPornstar.17.06.18.Ra...
NubileFilms.17.06.18.Kara.Fa...
PlayboyPlus.17.06.19.Ali.Ros...
CumFortune.E455.Wendy.Moon.X...
TheLifeErotic.17.06.18.Emma....
1By-Day.17.06.19.Lexi.Dona.X...
NewSensations.17.06.19.Nina....
PetiteBallerinasFucked.17.06...
Penthouse.16.05.09.Tiffany.B...
PornstarsLikeItBig.17.06.19....

3D
Die.irre.Heldentour.des.Bill...
Die.Bestimmung.Insurgent.3D....
Die.Bestimmung.Insurgent.3D....
The.Great.Wall.3D.2016.multi...
San.Andreas.3D.2015.German.D...
Mojin.The.Lost.Legend.3D.201...
The.LEGO.Batman.Movie.3D.201...
The.LEGO.Batman.Movie.2017.3...
The.LEGO.Batman.Movie.2017.3...
Kraftwerk.3D.12345678.2016.2...
Die.irre.Heldentour.des.Bill...
Die.irre.Heldentour.des.Bill...
L.A.Outlaws.Die.Gesetzlosen....
L.A.Outlaws.Die.Gesetzlosen....
Abenteuer.Everglades.3D.Die....

Old_Stuff
P.O.E.-.Project.of.Evil.UNCU...
Fields.of.the.Dead.3D.2014.D...
Feuerwerk.am.helllichten.Tag...
Pitch.Perfect.2012.German.DT...
Das.A-Team.S05.German.DUBBED...
Das.A-Team.S05.German.DUBBED...
House.Rules.for.Bad.Girls.3D...
Return.To.Nuke.Em.High.Volum...
Dragons.of.Camelot.2014.DUAL...
Amy.Sie.oeffnet.das.Tor.zur....
13.Eerie.We.Prey.For.You.UNC...
Codename.U.N.C.L.E.2015.MULT...
Halloween.Resurrection.2002....
Halloween.Resurrection.GERMA...
Om.Shanti.Om.2007.COMPLETE.B...

Musik
The.Beatles.Sgt.Peppers.Lone...
The.Prometheus.Dolby.Atmos.E...
R.E.M.OUT.OF.TIME.25th.Anniv...
The.Rolling.Stones.GRRR.BR-A...
Mussorgsky.Bilder.einer.Auss...
Yes.-.The.Yes.Album.Bluray-A...
Carlos.Heredia.Gypsy.Flamenc...
SPES.2014.complete.Bluray.un...
Carlos.Santana.Collection.19...
Pink.Floyd.The.Endless.River...
The.Hyperion.Romantic.Piano....
Putumayo.113.CD.Flac.lossles...

Filme
Legends.S01.German.DD51.Dubb...
Legends.S01.German.DD51.Dubb...
Jerks.S01.COMPLETE.GERMAN.72...
Mut.zur.Wahrheit.1996.German...
Mut.zur.Wahrheit.1996.German...
Fool.N.Final.2007.German.108...
Fool.N.Final.2007.German.720...
Wunschkinder.und.andere.Zufa...
Kinder.des.Lichts.2016.Germa...
No.Game.No.Life.German.2014....
Alpha.0.7.Der.Feind.in.dir.2...
GLOW.S01.German.DL.DUBBED.72...
The.Flash.S03.GERMAN.DUBBED....
Greys.Anatomy.S13.GERMAN.DUB...
Metallica.Francais.Pour.Une....
Blindspot.S02.German.DUBBED....
Supergirl.S02.GERMAN.DUBBED....
Supergirl.S02.GERMAN.DUBBED....
Fargo.S03.COMPLETE.German.DD...
Fargo.S03.COMPLETE.German.DD...
This.is.Us.S01.German.1080p....
Der.Uranberg.2010.German.720...
Gelb.ist.nicht.nur.die.Farbe...
Aldnoah.Zero.S01.German.2014...

 
 
Sicario.2015.German.DTS.DL.720p.BluRay.x264-Pate
Jahr: 2015
Genre: Action, Crime, Drama
Sprache: Deutsch DTS | Englisch DTS
Laufzeit: 2h 1mn
Bitrate: 7 859 Kbps
Format: MKV
Größe: 6.69 GiB
Release:

Beschreibung:

Die FBI-Agentin Kate aus Arizona wird von ihren Vorgesetzten zu einer Mission abgestellt, in der ein mexikanisches Drogenkartell durch das Unterbrechen des Geldflusses zu einem Verbindungsmann nervös gemacht werden soll. Über die wahren Direktiven wird sie von dem mysteriösen Matt allerdings im Unklaren gelassen. Nachdem es Matts Vollstrecker Alejandro gelingt, von einem großen Tier des Kartells die Schmuggelroute von Mexiko in die USA zu erfahren, geht der Einsatz in einem langen versteckten Tunnel in die heiße Phase über.



Unique ID                                : 193063503738016415930312409754704254389 (0x913EADA52EBE2ACBA7F49BA6E42B95B5)
Complete name                            : sic.72-pate.mkv
Format                                   : Matroska
Format version                           : Version 2
File size                                : 6.69 GiB
Duration                                 : 2h 1mn
Overall bit rate                         : 7 859 Kbps
Movie name                               : Pate
Encoded date                             : UTC 2016-01-27 09:38:08
Writing application                      : mkvmerge v3.4.0 ('Rapunzel') gebaut am May 15 2010 09:38:20
Writing library                          : libebml v0.8.0 + libmatroska v0.9.0

Video
ID                                       : 1
Format                                   : AVC
Format/Info                              : Advanced Video Codec
Format profile                           : [email protected]
Format settings, CABAC                   : Yes
Format settings, ReFrames                : 9 frames
Codec ID                                 : V_MPEG4/ISO/AVC
Duration                                 : 2h 1mn
Bit rate                                 : 4 684 Kbps
Nominal bit rate                         : 5 000 Kbps
Width                                    : 1 280 pixels
Height                                   : 536 pixels
Display aspect ratio                     : 2.40:1
Frame rate mode                          : Constant
Frame rate                               : 23.976 fps
Color space                              : YUV
Chroma subsampling                       : 4:2:0
Bit depth                                : 8 bits
Scan type                                : Progressive
Bits/(Pixel*Frame)                       : 0.285
Stream size                              : 3.99 GiB (60%)
Title                                    : 720p Pate
Writing library                          : x264 core 146 r2538 121396c
Encoding settings                        : cabac=1 / ref=9 / deblock=1:-3:-3 / analyse=0x3:0x113 / me=umh / subme=9 / psy=1 / psy_rd=1.10:0.00 / mixed_ref=1 / me_range=24 / chroma_me=1 / trellis=2 / 8x8dct=1 / cqm=0 / deadzone=21,11 / fast_pskip=0 / chroma_qp_offset=-2 / threads=12 / lookahead_threads=1 / sliced_threads=0 / nr=0 / decimate=1 / interlaced=0 / bluray_compat=0 / constrained_intra=0 / bframes=5 / b_pyramid=2 / b_adapt=1 / b_bias=0 / direct=3 / weightb=1 / open_gop=0 / weightp=2 / keyint=250 / keyint_min=23 / scenecut=40 / intra_refresh=0 / rc_lookahead=60 / rc=2pass / mbtree=1 / bitrate=5000 / ratetol=1.0 / qcomp=0.60 / qpmin=12 / qpmax=69 / qpstep=4 / cplxblur=20.0 / qblur=0.5 / ip_ratio=1.40 / aq=1:1.00
Language                                 : English
Default                                  : Yes
Forced                                   : Yes

Audio #1
ID                                       : 2
Format                                   : DTS
Format/Info                              : Digital Theater Systems
Mode                                     : 16
Format settings, Endianness              : Big
Codec ID                                 : A_DTS
Duration                                 : 2h 1mn
Bit rate mode                            : Constant
Bit rate                                 : 1 509 Kbps
Channel(s)                               : 6 channels
Channel positions                        : Front: L C R, Side: L R, LFE
Sampling rate                            : 48.0 KHz
Bit depth                                : 24 bits
Compression mode                         : Lossy
Stream size                              : 1.28 GiB (19%)
Language                                 : German
Default                                  : Yes
Forced                                   : Yes

Audio #2
ID                                       : 3
Format                                   : DTS
Format/Info                              : Digital Theater Systems
Mode                                     : 16
Format settings, Endianness              : Big
Codec ID                                 : A_DTS
Duration                                 : 2h 1mn
Bit rate mode                            : Constant
Bit rate                                 : 1 509 Kbps
Channel(s)                               : 6 channels
Channel positions                        : Front: L C R, Side: L R, LFE
Sampling rate                            : 48.0 KHz
Bit depth                                : 24 bits
Compression mode                         : Lossy
Stream size                              : 1.28 GiB (19%)
Language                                 : English
Default                                  : No
Forced                                   : No

Text #1
ID                                       : 4
Format                                   : VobSub
Muxing mode                              : zlib
Codec ID                                 : S_VOBSUB
Codec ID/Info                            : The same subtitle format used on DVDs
Title                                    : forced
Language                                 : German
Default                                  : Yes
Forced                                   : Yes

Text #2
ID                                       : 5
Format                                   : VobSub
Muxing mode                              : zlib
Codec ID                                 : S_VOBSUB
Codec ID/Info                            : The same subtitle format used on DVDs
Language                                 : German
Default                                  : No
Forced                                   : No


Download:
Share Online | Uploaded Share Online | UploadedShare Online | UploadedShare Online | Uploaded
 

Kommentare