King Arthur: Legend of the Sword (2017) El Rey Arturo: La leyenda de la espada (La leyenda de Excalibur) | [email protected] v3.0 Beta 3 Activator Windows and ...(A) | Once Upon a Time
 


 




Wir sind wenn hd-area.org mal ausfällt unter hd-area.biz erreichbar


Hier klickenfür Informationen zur Umgehung staatlicher Zensurmaßnahmen




Filmwünsche können bei uns im Forum abgegeben werden

Wir Speichern Nicht




 
 
 
Top Releases
Erpressung.Wie.viel.ist.dein...
10.Days.in.a.Madhouse.2015.D...
The.Editor.2014.DUAL.COMPLET...
Hell.or.High.Water.2016.DUAL...
Hell.or.High.Water.2016.Germ...
Hell.or.High.Water.2016.Germ...
The.Editor.2014.German.720p....
The.Editor.2014.German.DL.10...
Personal.Shopper.German.DL.1...
Fences.2016.German.DL.1080p....

Cinedubs
Die.Schluempfe.Das.verlorene...
Die.Schluempfe.Das.verlorene...
Kong.Skull.Island.2017.Germa...
Kong.Skull.Island.2017.Germa...
Das.Belko.Experiment.2017.GE...
Das.Belko.Experiment.2017.GE...
Power.Rangers.2017.German.AC...
Power.Rangers.2017.German.AC...
Power.Rangers.2017.GERMAN.DL...
Power.Rangers.2017.GERMAN.DL...

Neuerscheinungen 2016-17
Moontrap.Angriffsziel.Erde.2...
Der.Eid.Ein.Island.Thriller....
Pet.2016.DUAL.COMPLETE.BLURA...
Rings.2017.MULTi.COMPLETE.BL...
Der.Eid.Ein.Island.Thriller....
Der.Eid.Ein.Island.Thriller....
Pet.Wenn.du.etwas.liebst.dan...
Pet.Wenn.du.etwas.liebst.dan...
Fences.German.2016.DL.BluRay...
Fences.German.2016.DL.BluRay...

XXX
JulesJordan.17.06.18.Karlee....
FAKings.17.05.22.Sasha.Gil.S...
FAKings.17.05.08.Iris.SPANIS...
EuroGirlsOnGirls.17.06.18.Pa...
Nubiles-Porn.17.06.18.Via.La...
MyNaughtyAlbum.17.06.18.Anny...
3WayPorn.17.06.06.Amy.Lee.Sa...
GirlsDoPorn.E423.22.Years.Ol...
1000Facials.17.06.19.Mya.Maz...
AllGirlMassage.17.06.19.Reen...
DayWithAPornstar.17.06.18.Ra...
NubileFilms.17.06.18.Kara.Fa...
PlayboyPlus.17.06.19.Ali.Ros...
CumFortune.E455.Wendy.Moon.X...
TheLifeErotic.17.06.18.Emma....
1By-Day.17.06.19.Lexi.Dona.X...
NewSensations.17.06.19.Nina....
PetiteBallerinasFucked.17.06...
Penthouse.16.05.09.Tiffany.B...
PornstarsLikeItBig.17.06.19....

3D
Die.irre.Heldentour.des.Bill...
Die.Bestimmung.Insurgent.3D....
Die.Bestimmung.Insurgent.3D....
The.Great.Wall.3D.2016.multi...
San.Andreas.3D.2015.German.D...
Mojin.The.Lost.Legend.3D.201...
The.LEGO.Batman.Movie.3D.201...
The.LEGO.Batman.Movie.2017.3...
The.LEGO.Batman.Movie.2017.3...
Kraftwerk.3D.12345678.2016.2...
Die.irre.Heldentour.des.Bill...
Die.irre.Heldentour.des.Bill...
L.A.Outlaws.Die.Gesetzlosen....
L.A.Outlaws.Die.Gesetzlosen....
Abenteuer.Everglades.3D.Die....

Old_Stuff
P.O.E.-.Project.of.Evil.UNCU...
Fields.of.the.Dead.3D.2014.D...
Feuerwerk.am.helllichten.Tag...
Pitch.Perfect.2012.German.DT...
Das.A-Team.S05.German.DUBBED...
Das.A-Team.S05.German.DUBBED...
House.Rules.for.Bad.Girls.3D...
Return.To.Nuke.Em.High.Volum...
Dragons.of.Camelot.2014.DUAL...
Amy.Sie.oeffnet.das.Tor.zur....
13.Eerie.We.Prey.For.You.UNC...
Codename.U.N.C.L.E.2015.MULT...
Halloween.Resurrection.2002....
Halloween.Resurrection.GERMA...
Om.Shanti.Om.2007.COMPLETE.B...

Musik
The.Beatles.Sgt.Peppers.Lone...
The.Prometheus.Dolby.Atmos.E...
R.E.M.OUT.OF.TIME.25th.Anniv...
The.Rolling.Stones.GRRR.BR-A...
Mussorgsky.Bilder.einer.Auss...
Yes.-.The.Yes.Album.Bluray-A...
Carlos.Heredia.Gypsy.Flamenc...
SPES.2014.complete.Bluray.un...
Carlos.Santana.Collection.19...
Pink.Floyd.The.Endless.River...
The.Hyperion.Romantic.Piano....
Putumayo.113.CD.Flac.lossles...

Filme
Legends.S01.German.DD51.Dubb...
Legends.S01.German.DD51.Dubb...
Jerks.S01.COMPLETE.GERMAN.72...
Mut.zur.Wahrheit.1996.German...
Mut.zur.Wahrheit.1996.German...
Fool.N.Final.2007.German.108...
Fool.N.Final.2007.German.720...
Wunschkinder.und.andere.Zufa...
Kinder.des.Lichts.2016.Germa...
No.Game.No.Life.German.2014....
Alpha.0.7.Der.Feind.in.dir.2...
GLOW.S01.German.DL.DUBBED.72...
The.Flash.S03.GERMAN.DUBBED....
Greys.Anatomy.S13.GERMAN.DUB...
Metallica.Francais.Pour.Une....
Blindspot.S02.German.DUBBED....
Supergirl.S02.GERMAN.DUBBED....
Supergirl.S02.GERMAN.DUBBED....
Fargo.S03.COMPLETE.German.DD...
Fargo.S03.COMPLETE.German.DD...
This.is.Us.S01.German.1080p....
Der.Uranberg.2010.German.720...
Gelb.ist.nicht.nur.die.Farbe...
Aldnoah.Zero.S01.German.2014...

 
 
Basic.Instinct.2.UNRATED.2006.German.DL.AC3D.720p.BluRay.x264-SHOWEHD
Jahr: 2006
Genre: Drama, Mystery, Thriller
Sprache: Deutsch AC3 | Englisch DTS
Laufzeit: 1h 55mn
Bitrate: 7 210 Kbps
Format: MKV
Größe: 5.83 GiB
Release:

Beschreibung:

Catherine Tramell (Sharon Stone), die durchtriebene und attraktive Krimiautorin, lebt nun in London, wo sie wieder in einen mysteriösen Todesfall verwickelt wird. Als sie sich von ihrem Begleiter, dem Fußballstar Kevin Franks (gespielt von Fußballstar Stan Collymore), bei einer Spritztour durch die Stadt bei hoher Geschwindigkeit mit der Hand befriedigen lässt, gerät die Situation außer Kontrolle und der Wagen samt Insassen landet im Wasser. Franks ertrinkt, Tramell kann an die Oberfläche schwimmen. Die Autopsie ergibt, dass der Fußballer unter dem Einfluss einer lähmenden Droge stand. Detective Superinterdent Roy Washburn (David Thewlis) nimmt seine Ermittlungen auf und verhaftet Catherine, die aber auf Kaution freikommt. Sie begibt sich bei dem renommierten Psychiater Dr. Michael Glass (David Morrissey) in Behandlung und spielt mit dem Arzt ihr leidenschaftliches Spiel. Während Glass’ Mentorin, Dr. Milena Gardosh (Charlotte Rampling), versucht, ihn vor Tramell zu warnen, lässt er sich auf das Spiel mit der hochintelligenten Autorin ein. Weitere Morde geschehen…



Unique ID                                : 233897759397735117783960702148096180391 (0xAFF711E35297385DB3E6B642013640A7)
Complete name                            : binst2-720.mkv
Format                                   : Matroska
Format version                           : Version 4 / Version 2
File size                                : 5.83 GiB
Duration                                 : 1h 55mn
Overall bit rate                         : 7 210 Kbps
Encoded date                             : UTC 2017-06-18 09:38:48
Writing application                      : mkvmerge v7.0.0 ('Where We Going') 32bit built on Jun  9 2014 15:08:34
Writing library                          : libebml v1.3.0 + libmatroska v1.4.1
_STATISTICS_WRITING_APP                  : mkvmerge v7.0.0 ('Where We Going') 32bit built on Jun  9 2014 15:08:34
_STATISTICS_WRITING_DATE_UTC             : 2017-06-18 09:38:48
_STATISTICS_TAGS                         : BPS DURATION NUMBER_OF_FRAMES NUMBER_OF_BYTES
DURATION                                 : 01:49:27.734000000
NUMBER_OF_FRAMES                         : 1866
NUMBER_OF_BYTES                          : 4854211

Video
ID                                       : 1
Format                                   : AVC
Format/Info                              : Advanced Video Codec
Format profile                           : [email protected]
Format settings, CABAC                   : Yes
Format settings, ReFrames                : 8 frames
Codec ID                                 : V_MPEG4/ISO/AVC
Duration                                 : 1h 55mn
Bit rate                                 : 5 248 Kbps
Width                                    : 1 280 pixels
Height                                   : 720 pixels
Display aspect ratio                     : 16:9
Frame rate mode                          : Constant
Frame rate                               : 23.976 fps
Color space                              : YUV
Chroma subsampling                       : 4:2:0
Bit depth                                : 8 bits
Scan type                                : Progressive
Bits/(Pixel*Frame)                       : 0.238
Stream size                              : 4.13 GiB (71%)
Writing library                          : x264 core 150 r2833 df79067
Encoding settings                        : cabac=1 / ref=8 / deblock=1:-2:-2 / analyse=0x3:0x133 / me=umh / subme=9 / psy=1 / psy_rd=1.00:0.00 / mixed_ref=1 / me_range=16 / chroma_me=1 / trellis=2 / 8x8dct=1 / cqm=0 / deadzone=21,11 / fast_pskip=0 / chroma_qp_offset=-2 / threads=12 / lookahead_threads=1 / sliced_threads=0 / nr=0 / decimate=1 / interlaced=0 / bluray_compat=0 / constrained_intra=0 / bframes=3 / b_pyramid=2 / b_adapt=2 / b_bias=0 / direct=3 / weightb=1 / open_gop=0 / weightp=2 / keyint=250 / keyint_min=23 / scenecut=40 / intra_refresh=0 / rc_lookahead=60 / rc=2pass / mbtree=1 / bitrate=5248 / ratetol=1.0 / qcomp=0.60 / qpmin=10 / qpmax=69 / qpstep=4 / cplxblur=20.0 / qblur=0.5 / ip_ratio=1.40 / aq=1:0.70
Language                                 : German
Default                                  : Yes
Forced                                   : No
_STATISTICS_WRITING_APP                  : mkvmerge v7.0.0 ('Where We Going') 32bit built on Jun  9 2014 15:08:34
_STATISTICS_WRITING_DATE_UTC             : 2017-06-18 09:38:48
_STATISTICS_TAGS                         : BPS DURATION NUMBER_OF_FRAMES NUMBER_OF_BYTES
DURATION                                 : 01:55:46.982000000
NUMBER_OF_FRAMES                         : 166561
NUMBER_OF_BYTES                          : 4557303901

Audio #1
ID                                       : 2
Format                                   : AC-3
Format/Info                              : Audio Coding 3
Mode extension                           : CM (complete main)
Format settings, Endianness              : Big
Codec ID                                 : A_AC3
Duration                                 : 1h 55mn
Bit rate mode                            : Constant
Bit rate                                 : 448 Kbps
Channel(s)                               : 6 channels
Channel positions                        : Front: L C R, Side: L R, LFE
Sampling rate                            : 48.0 KHz
Bit depth                                : 16 bits
Compression mode                         : Lossy
Stream size                              : 371 MiB (6%)
Language                                 : German
Default                                  : Yes
Forced                                   : No

Audio #2
ID                                       : 3
Format                                   : DTS
Format/Info                              : Digital Theater Systems
Mode                                     : 16
Format settings, Endianness              : Big
Codec ID                                 : A_DTS
Duration                                 : 1h 55mn
Bit rate mode                            : Constant
Bit rate                                 : 1 509 Kbps
Channel(s)                               : 6 channels
Channel positions                        : Front: L C R, Side: L R, LFE
Sampling rate                            : 48.0 KHz
Bit depth                                : 24 bits
Compression mode                         : Lossy
Stream size                              : 1.22 GiB (21%)
Language                                 : English
Default                                  : No
Forced                                   : No

Text #1
ID                                       : 4
Format                                   : PGS
Muxing mode                              : zlib
Codec ID                                 : S_HDMV/PGS
Codec ID/Info                            : The same subtitle format used on BDs/HD-DVDs
Title                                    : German Full
Language                                 : German
Default                                  : No
Forced                                   : No

Text #2
ID                                       : 5
Format                                   : UTF-8
Codec ID                                 : S_TEXT/UTF8
Codec ID/Info                            : UTF-8 Plain Text
Language                                 : English
Default                                  : No
Forced                                   : No


Download:
Share Online | Uploaded Share Online | UploadedShare Online | UploadedShare Online | Uploaded
 

Kommentare