Difficult People (season 1, 2, 3) | InnocentHigh Jasmine Summers 720p HEVC x265 piemonster mkv | Terra X - Rätsel alter Weltkulturen
 


 




Wir sind wenn hd-area.org mal ausfällt unter hd-area.biz erreichbar


Hier klickenfür Informationen zur Umgehung staatlicher Zensurmaßnahmen




Filmwünsche können bei uns im Forum abgegeben werden

Wir Speichern Nicht




 
 
 
Top Releases
Live.by.Night.2016.German.Du...
I.am.not.your.Negro.2016.Ger...
I.am.not.your.Negro.2016.Ger...
The.Devils.Candy.2015.German...
Erpressung.Wie.viel.ist.dein...
Hell.or.High.Water.2016.Germ...
Sicario.2015.German.DTS.DL.1...
Loving.2016.German.DTS.DL.10...
Der.grosse.Trip.Wild.2014.Ge...
Der.grosse.Trip.Wild.2014.Ge...

Cinedubs
King.Arthur.Legend.of.the.Sw...
King.Arthur.Legend.of.the.Sw...
Chips.German.DL.AC3.Dubbed.7...
Chips.German.DL.AC3.Dubbed.1...
Kong.Skull.Island.German.DL....
Kong.Skull.Island.German.DL....
Resident.Evil.The.Final.Chap...
Resident.Evil.The.Final.Chap...
Resident.Evil.The.Final.Chap...
Resident.Evil.Vendetta.Germa...

Neuerscheinungen 2016-17
VOICE.FROM.THE.STONE.2017.DU...
Dont.Hang.Up.2016.MULTi.COMP...
DER.SCHWARZE.NAZI.2016.GERMA...
Let.Her.Out.2016.DUAL.COMPLE...
Dont.Hang.Up.2016.German.DL....
Voice.from.the.Stone.Ruf.aus...
Let.Her.Out.2016.German.720p...
Dont.Hang.Up.2016.German.DL....
Dont.Hang.Up.2016.German.720...
Let.Her.Out.2016.German.DL.1...

XXX
Gokudouno.Bizuma.Dai.Zenpen....
Lustery.E51.Lucy.And.Hunter....
HardTied.17.06.21.Maddy.Orei...
JulesJordan.17.06.21.Holly.H...
MikaelaWitt.17.03.31.Fetish....
JamesDeen.17.06.23.Anna.Morn...
HussieAuditions.17.06.24.Aal...
LadyVoyeurs.17.05.31.Jade.Lo...
Heyzo.17.04.02.Shouko.Takash...
Intimacy.7.XXX.1080p.WEBRip....
MikaelaWitt.17.04.14.Boyfrie...
LethalHardcore.Girl.Scout.No...
GangbangCreampie.17.06.23.G1...
Heyzo.17.03.31.Ei.Kato.A.Pur...
Joymii.17.06.23.Lexi.Dona.Fu...
HotAndMean.17.06.21.Anna.De....
MikaelaWitt.17.04.21.Bath.Ti...
LittleCapriceDreams.17.06.20...
MikaelaWitt.17.04.05.Bitch.T...
FuckingMachines.17.06.21.Lyr...

3D
Kong.Skull.Island.3D.2017.CO...
Storm.Surfers.3D.2012.Bluray...
Die.irre.Heldentour.des.Bill...
Die.Bestimmung.Insurgent.3D....
Die.Bestimmung.Insurgent.3D....
The.Great.Wall.3D.2016.multi...
San.Andreas.3D.2015.German.D...
Mojin.The.Lost.Legend.3D.201...
The.LEGO.Batman.Movie.3D.201...
The.LEGO.Batman.Movie.2017.3...
The.LEGO.Batman.Movie.2017.3...
Kraftwerk.3D.12345678.2016.2...
Die.irre.Heldentour.des.Bill...
Die.irre.Heldentour.des.Bill...
L.A.Outlaws.Die.Gesetzlosen....

Old_Stuff
Jurassic.Park.1993.German.DT...
Vergessene.Welt.Jurassic.Par...
Lie.With.Me.Liebe.Mich.2005....
Zurueck.zu.Dir.2000.GERMAN.A...
P.O.E.-.Project.of.Evil.UNCU...
Fields.of.the.Dead.3D.2014.D...
Feuerwerk.am.helllichten.Tag...
Pitch.Perfect.2012.German.DT...
Das.A-Team.S05.German.DUBBED...
Das.A-Team.S05.German.DUBBED...
House.Rules.for.Bad.Girls.3D...
Return.To.Nuke.Em.High.Volum...
Dragons.of.Camelot.2014.DUAL...
Amy.Sie.oeffnet.das.Tor.zur....
13.Eerie.We.Prey.For.You.UNC...

Musik
The.Beatles.Sgt.Peppers.Lone...
The.Prometheus.Dolby.Atmos.E...
R.E.M.OUT.OF.TIME.25th.Anniv...
The.Rolling.Stones.GRRR.BR-A...
Mussorgsky.Bilder.einer.Auss...
Yes.-.The.Yes.Album.Bluray-A...
Carlos.Heredia.Gypsy.Flamenc...
SPES.2014.complete.Bluray.un...
Carlos.Santana.Collection.19...
Pink.Floyd.The.Endless.River...
The.Hyperion.Romantic.Piano....
Putumayo.113.CD.Flac.lossles...

Filme
MacGyver.S01.GERMAN.DUBBED.D...
The.Blacklist.S04.COMPLETE.G...
The.Blacklist.S04.COMPLETE.G...
MacGyver.S01.GERMAN.DUBBED.D...
Legends.of.Tomorrow.S02.GERM...
Legends.of.Tomorrow.S02.GERM...
Blindspot.S02.German.DUBBED....
Blindspot.S02.German.DUBBED....
Gotham.S03.GERMAN.DUBBED.DL....
Gotham.S03.GERMAN.DUBBED.DL....
Poldark.2015.S02.German.DL.D...
Fear.The.Walking.Dead.S03.Ge...
Fear.The.Walking.Dead.S03.Ge...
Violent.Shit.The.Movie.GERMA...
Violent.Shit.The.Movie.GERMA...
Antigang.2015.German.1080p.B...
Antigang.2015.German.720p.Bl...
Jessabelle.Die.Vorsehung.201...
Sanctuary.US.S04D01-3.iNTERN...
I.Saw.the.Devil.-.Rache.ist....
Blood.Diamond.2006.German.AC...
Joe.Dreck.2.Extended.2015.Ge...
Joe.Dreck.2.Extended.2015.Ge...
Die.Liebe.seines.Lebens.2013...

 
 
Power.Rangers.2017.German.AC3MD.DL.1080p.BluRay.x264-PS
Jahr: 2017
Genre: Action, Adventure, Sci-Fi
Sprache: Deutsch AC3 | Englisch AC3
Laufzeit: 2h 3mn
Bitrate: 9 018 Kbps
Format: MKV
Größe: 7.81 GiB
Release:

Beschreibung:

Fünf Teenager, die unterschiedlicher nicht sein könnten: Jason (Dacre Montgomery), Kimberley (Naomi Scott), Billy (RJ Cyler), Trini (Becky G.) und Zack (Ludi Lin) haben nichts weiter gemeinsam, als auf dieselbe High-School im Städtchen ‘Angel Grove’ zu gehen. Als Jason und Billy durch Zufall auf etwas stoßen, das sie für uralte Fossilien halten, erwecken sie eine außerirdische Macht, die die Menschheit auslöschen will. Die Ereignisse überschlagen sich und schweißen die Teenager zusammen, als sie plötzlich auf unerklärliche Weise Superkräfte besitzen! Dass ihre neu erworbenen Fähigkeiten nicht nur ein Spiel sind, stellt sich schnell heraus, als ihnen Zordon, der einstige Red Ranger als Hologramm erscheint. Von ihm erfahren sie, dass die Außerirdische Rita Repulsa (Elizabeth Banks) mit ihrer Alien-Armee einen Angriff auf die Erde plant. Um die Welt retten zu können, müssen die fünf nun innerhalb weniger Tage lernen, was normalerweise Jahre dauert: echte ‘Power Rangers’ zu werden…



General
Unique ID                                : 221174053705549037555840185234089695964 (0xA66492C37B204B189993398A575DDADC)
Complete name                            : ps-rangers.108.mkv
Format                                   : Matroska
Format version                           : Version 4 / Version 2
File size                                : 7.81 GiB
Duration                                 : 2h 3mn
Overall bit rate                         : 9 018 Kbps
Encoded date                             : UTC 2017-06-16 03:26:07
Writing application                      : mkvmerge v8.0.0 ('Til The Day That I Die') 64bit
Writing library                          : libebml v1.3.1 + libmatroska v1.4.2
DURATION                                 : 01:50:58.701000000
NUMBER_OF_FRAMES                         : 36
NUMBER_OF_BYTES                          : 1174
_STATISTICS_WRITING_APP                  : mkvmerge v8.0.0 ('Til The Day That I Die') 64bit
_STATISTICS_WRITING_DATE_UTC             : 2017-06-16 03:26:07
_STATISTICS_TAGS                         : BPS DURATION NUMBER_OF_FRAMES NUMBER_OF_BYTES

Video
ID                                       : 1
Format                                   : AVC
Format/Info                              : Advanced Video Codec
Format profile                           : [email protected]
Format settings, CABAC                   : Yes
Format settings, ReFrames                : 5 frames
Codec ID                                 : V_MPEG4/ISO/AVC
Duration                                 : 2h 3mn
Bit rate                                 : 8 186 Kbps
Width                                    : 1 920 pixels
Height                                   : 800 pixels
Display aspect ratio                     : 2.40:1
Frame rate mode                          : Constant
Frame rate                               : 23.976 fps
Color space                              : YUV
Chroma subsampling                       : 4:2:0
Bit depth                                : 8 bits
Scan type                                : Progressive
Bits/(Pixel*Frame)                       : 0.222
Stream size                              : 6.93 GiB (89%)
Writing library                          : x264 core 150 r2833 df79067
Encoding settings                        : cabac=1 / ref=5 / deblock=1:-3:-3 / analyse=0x3:0x113 / me=umh / subme=8 / psy=1 / psy_rd=1.00:0.00 / mixed_ref=1 / me_range=16 / chroma_me=1 / trellis=1 / 8x8dct=1 / cqm=0 / deadzone=21,11 / fast_pskip=1 / chroma_qp_offset=-2 / threads=25 / lookahead_threads=4 / sliced_threads=0 / nr=0 / decimate=1 / interlaced=0 / bluray_compat=0 / constrained_intra=0 / bframes=3 / b_pyramid=2 / b_adapt=1 / b_bias=0 / direct=3 / weightb=1 / open_gop=0 / weightp=2 / keyint=240 / keyint_min=24 / scenecut=40 / intra_refresh=0 / rc_lookahead=50 / rc=2pass / mbtree=1 / bitrate=8186 / ratetol=1.0 / qcomp=0.60 / qpmin=0 / qpmax=69 / qpstep=4 / cplxblur=20.0 / qblur=0.5 / ip_ratio=1.40 / aq=1:1.00
Default                                  : Yes
Forced                                   : No
DURATION                                 : 02:03:58.473000000
NUMBER_OF_FRAMES                         : 178345
NUMBER_OF_BYTES                          : 7609509464
_STATISTICS_WRITING_APP                  : mkvmerge v8.0.0 ('Til The Day That I Die') 64bit
_STATISTICS_WRITING_DATE_UTC             : 2017-06-16 03:26:07
_STATISTICS_TAGS                         : BPS DURATION NUMBER_OF_FRAMES NUMBER_OF_BYTES

Audio #1
ID                                       : 2
Format                                   : AC-3
Format/Info                              : Audio Coding 3
Mode extension                           : CM (complete main)
Format settings, Endianness              : Big
Codec ID                                 : A_AC3
Duration                                 : 2h 3mn
Bit rate mode                            : Constant
Bit rate                                 : 192 Kbps
Channel(s)                               : 2 channels
Channel positions                        : Front: L R
Sampling rate                            : 48.0 KHz
Bit depth                                : 16 bits
Compression mode                         : Lossy
Stream size                              : 170 MiB (2%)
Language                                 : German
Default                                  : Yes
Forced                                   : Yes

Audio #2
ID                                       : 3
Format                                   : AC-3
Format/Info                              : Audio Coding 3
Mode extension                           : CM (complete main)
Format settings, Endianness              : Big
Codec ID                                 : A_AC3
Duration                                 : 2h 3mn
Bit rate mode                            : Constant
Bit rate                                 : 640 Kbps
Channel(s)                               : 6 channels
Channel positions                        : Front: L C R, Side: L R, LFE
Sampling rate                            : 48.0 KHz
Bit depth                                : 16 bits
Compression mode                         : Lossy
Stream size                              : 568 MiB (7%)
Language                                 : English
Default                                  : No
Forced                                   : No

Text
ID                                       : 4
Format                                   : UTF-8
Codec ID                                 : S_TEXT/UTF8
Codec ID/Info                            : UTF-8 Plain Text
Language                                 : German
Default                                  : Yes
Forced                                   : Yes


Download:
Share Online | Uploaded Share Online | UploadedShare Online | UploadedShare Online | Uploaded
 

Kommentare